每日一歌

日文老歌论坛

 找回密码
 注册
搜索
查看: 3445|回复: 32

[专辑] [115网盘] 松尾和子 Victor TWIN BEST (2枚組,更新完毕)

[复制链接]

229

主题

2

好友

1万

积分

超级版主

阿富汗老油条

Rank: 6Rank: 6

在线时间
1224 小时
金钱
11548 円
注册时间
2005-9-1
积分
12057
帖子
2131
UID
3478

原创唱片大赏勋章

发表于 2011-10-24 21:20:22 |显示全部楼层
本帖最后由 zaar 于 2011-10-28 11:17 编辑

folder.jpg

松尾和子 / TWIN BEST
Victor

VICL 41037-38

DISC-1
1. グッドナイト(松尾和子/和田弘とマヒナスターズ)
2. 東京ナイトクラブ(松尾和子/フランク永井)
3. 誰よりも君を愛す(松尾和子/和田弘とマヒナスターズ)
4. 夜がわるい
5. 嫌い嫌い嫌い
6. 別離
7. 小さな酒場
8. 再会
9. 東京の夜は泣いている
10. AF機が呼んでいる(松尾和子/藤田功)
11. 哀愁の一夜
12. 山麓
13. ミサよタンゴを踊ろうよ
14. 涙にしてみれば
15. 熱海ブルース
16. 黒いドレス
17. 国道十八号線(松尾和子/フランク永井)
18. お座敷小唄(松尾和子/和田弘とマヒナスターズ)
19. シェルブールの雨傘
20. ピアノ·ピアニーノ

DISC-2
1. 続·お座敷小唄(松尾和子/和田弘とマヒナスターズ)
2. 銀座ブルース(松尾和子/和田弘とマヒナスターズ)
3. 雨の東京
4. 思い出のレコード(松尾和子/フランク永井/吉永小百合/三田明)
5. おそかった
6. 傷あと(松尾和子/平岡精二クインテット)
7. 銀座しぐれ
8. 恋慕小唄(松尾和子/浜マサヒロとリヴェラ5)
9. 再会の朝
10. なみだの子守歌
11. 煙草のくせ
12. 坊や
13. 夜明けのラプソディー
14. らせん階段
15. 夜がわるい
16. 11時過ぎから(松尾和子/フランク永井)
17. さよなら
18. いつまで待つの
19. お大事に
20. 春来川慕情

scan:
游客,如果您要查看本帖隐藏内容请回复

CD1:
游客,如果您要查看本帖隐藏内容请回复

CD2:
游客,如果您要查看本帖隐藏内容请回复


密码: 松尾和子 PW.rar (112 Bytes, 下载次数: 22, 售价: 10 円金钱)
已有 1 人评分金钱 收起 理由
bobbysu + 25 赞一个!

总评分: 金钱 + 25   查看全部评分

zaar的世界:
http://www.verycd.com/groups/@g20734/

953

主题

28

好友

1万

积分

新人审核版主

Rank: 5Rank: 5

在线时间
4815 小时
金钱
9119 円
注册时间
2006-7-19
积分
10292
帖子
13329
UID
4868

原创唱片大赏勋章 每日一曲月最佳歌曲纪念勋章

发表于 2011-10-24 21:33:08 |显示全部楼层
坐在沙发上等
请大家擦亮眼睛,不要与淘宝咸鱼S姓卖家das880交易,以免被骗https://bbs.javaws.com/forum.php ... p;page=1#pid1455672
出售自己收藏的CD和LP,有需求请联系我微信592964431,或者email: [email protected]

912

主题

27

好友

3万

积分

管理员

Rank: 7Rank: 7Rank: 7

在线时间
4122 小时
金钱
32630 円
注册时间
2003-7-22
积分
33782
帖子
33676
UID
36
发表于 2011-10-24 22:43:06 |显示全部楼层
山山 发表于 2011-10-24 21:33
坐在沙发上等

那我这就是坐在板凳上等了

谈天说地里有一贴,说现在有些词汇,原意都是十分不雅的

忽然想起,据说,第一个回复的称为坐沙发,其实最早出自看美女的图片,意思是靠得最近,可以坐在沙发上xx
湖水是你的眼神,梦想满天星辰,心情是一个传说,亘古不变地等候
成长是一扇树叶的门,童年有一群亲爱的人,春天是一段路程,沧海桑田的拥有
那些我爱的人,那些离逝的风,那些永远的誓言一遍一遍
那些爱我的人,那些沉淀的泪,那些永远的誓言一遍一遍

我们都曾有过一张天真而忧伤的脸,手握阳光我们望着遥远
轻轻的一天天一年又一年
长大间我们是否还会再唱起心愿
长大间我们是否还会再唱起心愿

953

主题

28

好友

1万

积分

新人审核版主

Rank: 5Rank: 5

在线时间
4815 小时
金钱
9119 円
注册时间
2006-7-19
积分
10292
帖子
13329
UID
4868

原创唱片大赏勋章 每日一曲月最佳歌曲纪念勋章

发表于 2011-10-25 08:54:25 |显示全部楼层
hopeyearn 发表于 2011-10-24 22:43
那我这就是坐在板凳上等了

谈天说地里有一贴,说现在有些词汇,原意都是十分不雅的

额,不太明白。。。
请大家擦亮眼睛,不要与淘宝咸鱼S姓卖家das880交易,以免被骗https://bbs.javaws.com/forum.php ... p;page=1#pid1455672
出售自己收藏的CD和LP,有需求请联系我微信592964431,或者email: [email protected]

568

主题

5

好友

1万

积分

贵宾会员

Rank: 4

在线时间
2574 小时
金钱
11959 円
注册时间
2003-9-25
积分
12727
帖子
10163
UID
74

原创唱片大赏勋章 每日一曲月优秀歌曲纪念勋章 每日一曲月最佳歌曲纪念勋章 全勤纪念勋章 优秀原创勋章 杰出会员勋章 热心会员勋章

发表于 2011-10-25 17:11:38 |显示全部楼层
好多合唱的哦,与和田弘とマヒナスターズ合唱的一定很有味道
人的一生应该不断积累心灵的财富

61

主题

1

好友

952

积分

认证会员

Rank: 2

在线时间
387 小时
金钱
871 円
注册时间
2010-9-30
积分
952
帖子
746
UID
40130
发表于 2011-10-25 18:44:47 |显示全部楼层
不熟悉的歌手,聽聽,感謝大大分享!

259

主题

1

好友

2034

积分

高级会员

Rank: 3Rank: 3

在线时间
1754 小时
金钱
1775 円
注册时间
2007-9-26
积分
2034
帖子
6927
UID
13649
发表于 2011-10-25 23:10:02 |显示全部楼层
這是最具代表性的老歌...我也來聽看看 !!...也非常謝謝您帶來的懷舊旋律欣賞!

568

主题

5

好友

1万

积分

贵宾会员

Rank: 4

在线时间
2574 小时
金钱
11959 円
注册时间
2003-9-25
积分
12727
帖子
10163
UID
74

原创唱片大赏勋章 每日一曲月优秀歌曲纪念勋章 每日一曲月最佳歌曲纪念勋章 全勤纪念勋章 优秀原创勋章 杰出会员勋章 热心会员勋章

发表于 2011-10-27 14:23:57 |显示全部楼层
老z这厮真够懒的,还不把第二张弄上来啊
人的一生应该不断积累心灵的财富

229

主题

2

好友

1万

积分

超级版主

阿富汗老油条

Rank: 6Rank: 6

在线时间
1224 小时
金钱
11548 円
注册时间
2005-9-1
积分
12057
帖子
2131
UID
3478

原创唱片大赏勋章

发表于 2011-10-27 22:02:31 |显示全部楼层
传好了,但是115好像暂时上不去了。
zaar的世界:
http://www.verycd.com/groups/@g20734/

568

主题

5

好友

1万

积分

贵宾会员

Rank: 4

在线时间
2574 小时
金钱
11959 円
注册时间
2003-9-25
积分
12727
帖子
10163
UID
74

原创唱片大赏勋章 每日一曲月优秀歌曲纪念勋章 每日一曲月最佳歌曲纪念勋章 全勤纪念勋章 优秀原创勋章 杰出会员勋章 热心会员勋章

发表于 2011-10-27 22:41:07 |显示全部楼层
zaar 发表于 2011-10-27 22:02
传好了,但是115好像暂时上不去了。

刚才是不行,现在可以了
人的一生应该不断积累心灵的财富

229

主题

2

好友

1万

积分

超级版主

阿富汗老油条

Rank: 6Rank: 6

在线时间
1224 小时
金钱
11548 円
注册时间
2005-9-1
积分
12057
帖子
2131
UID
3478

原创唱片大赏勋章

发表于 2011-10-28 11:18:38 |显示全部楼层
rachmaninov 发表于 2011-10-27 22:41
刚才是不行,现在可以了

报告拉书记:任务已完成!
zaar的世界:
http://www.verycd.com/groups/@g20734/

568

主题

5

好友

1万

积分

贵宾会员

Rank: 4

在线时间
2574 小时
金钱
11959 円
注册时间
2003-9-25
积分
12727
帖子
10163
UID
74

原创唱片大赏勋章 每日一曲月优秀歌曲纪念勋章 每日一曲月最佳歌曲纪念勋章 全勤纪念勋章 优秀原创勋章 杰出会员勋章 热心会员勋章

发表于 2011-10-28 16:41:57 |显示全部楼层
zaar 发表于 2011-10-28 11:18
报告拉书记:任务已完成!

正在验收
人的一生应该不断积累心灵的财富

69

主题

3

好友

1105

积分

高级会员

Rank: 3Rank: 3

在线时间
997 小时
金钱
1036 円
注册时间
2008-10-1
积分
1105
帖子
748
UID
21396
发表于 2012-1-23 16:31:11 |显示全部楼层
:handshake:handshake
http://www.douban.com/people/Christopher_lai/

69

主题

3

好友

1105

积分

高级会员

Rank: 3Rank: 3

在线时间
997 小时
金钱
1036 円
注册时间
2008-10-1
积分
1105
帖子
748
UID
21396
发表于 2012-1-23 16:31:15 |显示全部楼层
:handshake:handshake
http://www.douban.com/people/Christopher_lai/

2

主题

0

好友

41

积分

普通会员

Rank: 1

在线时间
3 小时
金钱
39 円
注册时间
2012-2-25
积分
41
帖子
13
UID
94388
发表于 2012-2-26 13:01:36 |显示全部楼层
昨晚看交岚时一个西方人提到优美的日本民歌谣,当时放了一句松尾和子的再会,一句就被镇住了,到处找来找去找到这里来。
从以前开始就很喜爱古旧时代的曲和歌谣,演歌、岛呗什么的都是大爱。缓缓流淌的优美和忧伤,是其它歌谣难以比拟的。
已有 1 人评分金钱 收起 理由
hopeyearn + 10 赞一个!

总评分: 金钱 + 10   查看全部评分

609

主题

20

好友

2万

积分

版主

Rank: 5Rank: 5

在线时间
2224 小时
金钱
26983 円
注册时间
2004-7-19
积分
27672
帖子
49256
UID
460

每日一曲月最佳歌曲纪念勋章 资深会员纪念章 每日一曲月优秀歌曲纪念勋章 热心会员勋章 灌水天才勋章 全勤纪念勋章 优秀原创勋章

发表于 2012-2-27 22:32:54 |显示全部楼层
一直都想下载,现在有钱了
面对证据确凿的反驳,一干人等装聋作哑视若无睹还自我感觉良好

一个论坛的管理员居然带头造谣诽谤,另一个管理员居然随声附和,真TM的奇芭论坛

现在太多的中国人,他们不分是非,只有立场。

诽谤图1:http://bbs.javaws.com/data/attachment/forum/201201/26/110621i3hhfr231cwmn2n3.jpg

诽谤图2:http://bbs.javaws.com/data/attachment/forum/201201/26/111204qwwfw3bgtauqzrmk.jpg

反驳图1:http://bbs.javaws.com/data/attachment/forum/201201/26/110932uibrvp76i86r9698.jpg

反驳图2:http://bbs.javaws.com/data/attachment/forum/201201/26/110928lz6z56tuvrmtlut0.jpg

912

主题

27

好友

3万

积分

管理员

Rank: 7Rank: 7Rank: 7

在线时间
4122 小时
金钱
32630 円
注册时间
2003-7-22
积分
33782
帖子
33676
UID
36
发表于 2012-2-27 22:33:55 |显示全部楼层
雨宫萤 发表于 2012-2-26 13:01
昨晚看交岚时一个西方人提到优美的日本民歌谣,当时放了一句松尾和子的再会,一句就被镇住了,到处找来找去 ...

给你一个红包,不过小心使用哦,变成负分会员就不能发言啦
湖水是你的眼神,梦想满天星辰,心情是一个传说,亘古不变地等候
成长是一扇树叶的门,童年有一群亲爱的人,春天是一段路程,沧海桑田的拥有
那些我爱的人,那些离逝的风,那些永远的誓言一遍一遍
那些爱我的人,那些沉淀的泪,那些永远的誓言一遍一遍

我们都曾有过一张天真而忧伤的脸,手握阳光我们望着遥远
轻轻的一天天一年又一年
长大间我们是否还会再唱起心愿
长大间我们是否还会再唱起心愿

277

主题

1

好友

1666

积分

高级会员

Rank: 3Rank: 3

在线时间
216 小时
金钱
1389 円
注册时间
2011-5-17
积分
1666
帖子
1440
UID
56759

高级会员纪念章

发表于 2012-2-28 10:47:10 |显示全部楼层
不熟悉的歌手  多谢推荐!!

2

主题

0

好友

41

积分

普通会员

Rank: 1

在线时间
3 小时
金钱
39 円
注册时间
2012-2-25
积分
41
帖子
13
UID
94388
发表于 2012-3-4 22:29:04 |显示全部楼层
谢谢hopeyearn~那正好拿来买这个帖子吧~

2

主题

0

好友

41

积分

普通会员

Rank: 1

在线时间
3 小时
金钱
39 円
注册时间
2012-2-25
积分
41
帖子
13
UID
94388
发表于 2012-3-5 22:21:45 |显示全部楼层
编辑了一下cue文件,部分假名注了英文



PERFORMER "松尾和子"
TITLE "Victor TWIN BEST Disc-1"
FILE "CDImage.flac" WAVE
  TRACK 01 AUDIO
    TITLE "グッドナイト(goodnight)"
    PERFORMER "松尾和子/和田弘とマヒナスターズ"
    INDEX 00 00:00:00
    INDEX 01 00:00:37
  TRACK 02 AUDIO
    TITLE "東京ナイトクラブ(nightclub)"
    PERFORMER "松尾和子/フランク永井"
    INDEX 00 03:55:41
    INDEX 01 03:57:70
  TRACK 03 AUDIO
    TITLE "誰よりも君を愛す"
    PERFORMER "松尾和子/和田弘とマヒナスターズ"
    INDEX 00 07:53:10
    INDEX 01 07:55:25
  TRACK 04 AUDIO
    TITLE "夜がわるい"
    PERFORMER "松尾和子"
    INDEX 00 11:32:10
    INDEX 01 11:34:60
  TRACK 05 AUDIO
    TITLE "嫌い嫌い嫌い"
    PERFORMER "松尾和子"
    INDEX 00 15:12:12
    INDEX 01 15:14:50
  TRACK 06 AUDIO
    TITLE "別離"
    PERFORMER "松尾和子"
    INDEX 00 18:42:15
    INDEX 01 18:44:32
  TRACK 07 AUDIO
    TITLE "小さな酒場"
    PERFORMER "松尾和子"
    INDEX 00 22:39:68
    INDEX 01 22:42:25
  TRACK 08 AUDIO
    TITLE "再会"
    PERFORMER "松尾和子"
    INDEX 00 26:22:42
    INDEX 01 26:25:07
  TRACK 09 AUDIO
    TITLE "東京の夜は泣いている"
    PERFORMER "松尾和子"
    INDEX 00 30:37:20
    INDEX 01 30:39:55
  TRACK 10 AUDIO
    TITLE "AF機が呼んでいる"
    PERFORMER "松尾和子/藤田功"
    INDEX 00 34:28:07
    INDEX 01 34:30:42
  TRACK 11 AUDIO
    TITLE "哀愁の一夜"
    PERFORMER "松尾和子"
    INDEX 00 38:23:00
    INDEX 01 38:25:47
  TRACK 12 AUDIO
    TITLE "山麓"
    PERFORMER "松尾和子"
    INDEX 00 42:24:00
    INDEX 01 42:26:45
  TRACK 13 AUDIO
    TITLE "ミサよタンゴを踊ろうよ"
    PERFORMER "松尾和子"
    INDEX 00 45:21:05
    INDEX 01 45:23:30
  TRACK 14 AUDIO
    TITLE "涙にしてみれば"
    PERFORMER "松尾和子"
    INDEX 00 49:11:27
    INDEX 01 49:13:42
  TRACK 15 AUDIO
    TITLE "熱海ブルース(blues)"
    PERFORMER "松尾和子"
    INDEX 00 52:20:43
    INDEX 01 52:23:00
  TRACK 16 AUDIO
    TITLE "黒いドレス(dress)"
    PERFORMER "松尾和子"
    INDEX 00 56:21:15
    INDEX 01 56:23:65
  TRACK 17 AUDIO
    TITLE "国道十八号線"
    PERFORMER "松尾和子/フランク永井"
    INDEX 00 60:01:69
    INDEX 01 60:04:47
  TRACK 18 AUDIO
    TITLE "お座敷小唄"
    PERFORMER "松尾和子/和田弘とマヒナスターズ"
    INDEX 00 63:47:60
    INDEX 01 63:50:10
  TRACK 19 AUDIO
    TITLE "シェルブールの雨傘"
    PERFORMER "松尾和子"
    INDEX 00 67:12:43
    INDEX 01 67:14:72
  TRACK 20 AUDIO
    TITLE "ピアノ·ピアニーノ"
    PERFORMER "松尾和子"
    INDEX 00 70:34:67
    INDEX 01 70:37:12

2

主题

0

好友

41

积分

普通会员

Rank: 1

在线时间
3 小时
金钱
39 円
注册时间
2012-2-25
积分
41
帖子
13
UID
94388
发表于 2012-3-5 22:23:24 |显示全部楼层
谁能告诉我シェルブール是什么?shellball贝壳球????
ピアノ·ピアニーノ是什么?钢琴和皮亚尼诺????

2

主题

0

好友

41

积分

普通会员

Rank: 1

在线时间
3 小时
金钱
39 円
注册时间
2012-2-25
积分
41
帖子
13
UID
94388
发表于 2012-3-5 22:30:17 |显示全部楼层
第二张专辑的cue:


PERFORMER "松尾和子"
TITLE "Victor TWIN BEST Disc-2"
FILE "CDImage.flac" WAVE
  TRACK 01 AUDIO
    TITLE "続·お座敷小唄"
    PERFORMER "松尾和子/和田弘とマヒナスターズ"
    INDEX 00 00:00:00
    INDEX 01 00:00:37
  TRACK 02 AUDIO
    TITLE "銀座ブルース"
    PERFORMER "松尾和子/和田弘とマヒナスターズ"
    INDEX 00 03:05:14
    INDEX 01 03:07:34
  TRACK 03 AUDIO
    TITLE "雨の東京"
    PERFORMER "松尾和子"
    INDEX 00 06:48:71
    INDEX 01 06:51:24
  TRACK 04 AUDIO
    TITLE "思い出のレコード(record)"
    PERFORMER "松尾和子/フランク永井/吉永小百合/三田明"
    INDEX 00 09:55:36
    INDEX 01 09:57:54
  TRACK 05 AUDIO
    TITLE "おそかった"
    PERFORMER "松尾和子"
    INDEX 00 13:55:61
    INDEX 01 13:58:12
  TRACK 06 AUDIO
    TITLE "傷あと"
    PERFORMER "松尾和子/平岡精二クインテット"
    INDEX 00 18:05:64
    INDEX 01 18:08:14
  TRACK 07 AUDIO
    TITLE " 銀座しぐれ"
    PERFORMER "松尾和子"
    INDEX 00 21:15:45
    INDEX 01 21:18:04
  TRACK 08 AUDIO
    TITLE "恋慕小唄"
    PERFORMER "松尾和子/浜マサヒロとリヴェラ5"
    INDEX 00 24:13:71
    INDEX 01 24:16:29
  TRACK 09 AUDIO
    TITLE "再会の朝"
    PERFORMER "松尾和子"
    INDEX 00 27:57:25
    INDEX 01 27:59:52
  TRACK 10 AUDIO
    TITLE "なみだの子守歌"
    PERFORMER "松尾和子"
    INDEX 00 31:39:05
    INDEX 01 31:41:42
  TRACK 11 AUDIO
    TITLE "煙草のくせ"
    PERFORMER "松尾和子"
    INDEX 00 35:41:48
    INDEX 01 35:44:02
  TRACK 12 AUDIO
    TITLE "坊や"
    PERFORMER "松尾和子"
    INDEX 00 38:56:70
    INDEX 01 38:59:29
  TRACK 13 AUDIO
    TITLE "夜明けのラプソディー(rhapsody)"
    PERFORMER "松尾和子"
    INDEX 00 43:04:54
    INDEX 01 43:06:74
  TRACK 14 AUDIO
    TITLE "らせん階段"
    PERFORMER "松尾和子"
    INDEX 00 46:59:37
    INDEX 01 47:02:04
  TRACK 15 AUDIO
    TITLE "夜がわるい"
    PERFORMER "松尾和子"
    INDEX 00 49:28:55
    INDEX 01 49:31:69
  TRACK 16 AUDIO
    TITLE "11時過ぎから"
    PERFORMER "松尾和子/フランク永井"
    INDEX 00 53:09:48
    INDEX 01 53:12:02
  TRACK 17 AUDIO
    TITLE "さよなら"
    PERFORMER "松尾和子"
    INDEX 00 56:43:61
    INDEX 01 56:46:09
  TRACK 18 AUDIO
    TITLE "いつまで待つの"
    PERFORMER "松尾和子"
    INDEX 00 60:55:18
    INDEX 01 60:57:32
  TRACK 19 AUDIO
    TITLE "お大事に"
    PERFORMER "松尾和子"
    INDEX 00 64:39:46
    INDEX 01 64:41:67
  TRACK 20 AUDIO
    TITLE "春来川慕情"
    PERFORMER "松尾和子"
    INDEX 00 68:23:17
    INDEX 01 68:25:49

2

主题

0

好友

41

积分

普通会员

Rank: 1

在线时间
3 小时
金钱
39 円
注册时间
2012-2-25
积分
41
帖子
13
UID
94388
发表于 2012-3-5 22:33:12 |显示全部楼层
这下,不整齐会死星人终于舒坦了~
01.JPG

9

主题

1

好友

235

积分

认证会员

Rank: 2

在线时间
276 小时
金钱
226 円
注册时间
2012-11-20
积分
235
帖子
458
UID
147668
发表于 2013-3-25 09:12:59 |显示全部楼层
本帖最后由 finn7 于 2013-3-25 09:14 编辑

Sorry that the files are gone~!

8

主题

0

好友

34

积分

普通会员

Rank: 1

在线时间
11 小时
金钱
26 円
注册时间
2008-6-18
积分
34
帖子
47
UID
19358
发表于 2013-3-30 09:28:32 |显示全部楼层
哇。不錯哦。

11

主题

0

好友

15

积分

普通会员

Rank: 1

在线时间
143 小时
金钱
4 円
注册时间
2013-1-24
积分
15
帖子
121
UID
156811
发表于 2013-4-2 11:31:25 |显示全部楼层
看看网盘上还有没有连接,慢慢购买

1872

主题

4

好友

6780

积分

资深会员

X控 Ms.80后剩童 微迷症 开快车破坏旅馆房间 多愁多病

Rank: 4

在线时间
7983 小时
金钱
4888 円
注册时间
2011-11-8
积分
6780
帖子
12003
UID
78326

每日一曲月优秀歌曲纪念勋章 每日一曲月最佳歌曲纪念勋章 资深会员纪念章 全勤纪念勋章 热心会员勋章 优秀原创勋章 高级会员纪念章 天使勋章

发表于 2013-9-16 01:15:56 |显示全部楼层
多谢楼主分享
当你見到天上星星,可会想起我。可会記得当年我的脸,曾為你更比星星笑得多!可会怀念我在你心中,照耀過。。。。
http://bbs.javaws.com/home.php?mod=space&uid=78326
X控 Ms.80后剩童 微迷症 开快车破坏旅馆房间 多愁多病身
本人埋伏茬台東附近灬灬灬灬灬灬灬●·幹掉耶穌wǒ就s'神!●·
或许爱情,更像落叶。看似飞翔却在坠落
┏╮/╱ ·ˊ   ╲\╭┛ / ^ 祢芡硪壹個槦佨。丅褙耔,劑嘚渙╰═┛﹖ ︶︶~~~ ̄ 〃℡! ● ·.'
                                  ▂,ènd︷.^灬o
    ╰★╮``                 
    ゛╰┛、'13920102一生就爱你要你爱︷.
AAAメ︷.o`長汏結婚-- メ︷.o诅咒 リ.呦兒圜^灬

我不是唯一因幸福而不安的人灬
要一句诺言,即使明知它与留连于皮肤上的吻痕一般,会失去痕迹^灬o
夜深罖静-唯莪未眠︷.
情缘或者生命,都只是从指尖滑落的水滴,随时都在失去
我怕冷的手,却再也不能握住你的心^灬o
喜欢听着安静的歌,用安静的心情来想你^灬o
洳果傷嗐ωǒ的伈伱能 ┈(快樂)_ 那麼伱繼續

297

主题

1

好友

4940

积分

资深会员

Rank: 4

在线时间
507 小时
金钱
4623 円
注册时间
2012-7-24
积分
4940
帖子
1017
UID
124660

高级会员纪念章 优秀原创勋章

发表于 2013-10-20 14:19:24 |显示全部楼层
~感谢版大分享~

43

主题

11

好友

269

积分

认证会员

Rank: 2

在线时间
216 小时
金钱
206 円
注册时间
2013-1-20
积分
269
帖子
1781
UID
159594
发表于 2014-1-5 21:02:33 |显示全部楼层
谢谢楼主!

180

主题

13

好友

2604

积分

资深会员

Rank: 4

在线时间
2729 小时
金钱
2424 円
注册时间
2013-5-18
积分
2604
帖子
3293
UID
188692

高级会员纪念章 全勤纪念勋章

发表于 2014-1-6 09:22:18 |显示全部楼层
演歌听得不多,欣赏一下。
寻找下列无损资源:長山洋子偶像时代无损专辑、吉沢秋絵、薬師寺容子和麻生真美子的无损资源。如果哪位网友收藏过并且肯分享,请在论坛留言与我联系。thanks a lot.
您需要登录后才可以回帖 登录 | 注册

手机版|Archiver|日文老歌论坛 ( 沪ICP备05038666号 )

GMT+8, 2019-8-24 14:36 , Processed in 0.264913 second(s), 28 queries .

Powered by Discuz! X2.5

© 2001-2012 Comsenz Inc.

回顶部