每日一歌

日文老歌论坛

 找回密码
 注册
搜索
查看: 2880|回复: 15

[公告] [115网盘]{1stアルバムCD初回盤}[19950405]岩男潤子 - はじめまして (wav)[413M]

[复制链接]

102

主题

1

好友

1145

积分

高级会员

Rank: 3Rank: 3

在线时间
229 小时
金钱
1043 円
注册时间
2008-9-14
积分
1145
帖子
359
UID
20958
发表于 2010-6-25 15:18:31 |显示全部楼层
本帖最后由 bobbysu 于 2018-4-22 13:31 编辑
喜爱[魔卡少女樱]的漫迷朋友们,或许会被大道寺知世的声优:岩男潤子不可思议的变化声线所着迷吧。

的确,岩男润子经常饰演一些非常温婉的女性角色,被誉为“新一代温柔女性的代言人”。同时她也很擅长为低龄可爱的女孩子[说白了就是儿童]角色配音,而且在那充满稚气的声线中丝毫不留任何破绽。

我是在03年购入了这张岩男潤子的首张专辑,从整张专辑听下来,感觉当年的她声音是那么的甜美,毕竟是新人嘛,总会尽最大努力将自己

温柔声线的特长充分展示出来,让人留下刻骨铭心的印象吧。CD有外套保护,另附带写真集一本,很具有收藏价值。哈哈。。。

作曲家中有个【山本はるきち】名字他是润子的丈夫,梦幻妖子的OP正是此人作曲,那曲子完美啊。呵呵。

对该专辑简要评价:

在和声中,“はじめまして”作为开场歌进入我们的耳际,正如歌名,这是润子作为歌手出的第一首歌。歌很短,部分清唱之后加入和声,宛若是接待宾客的礼数,与“はじめまして”里那个版本不同的是,演唱会省去了歌曲后半部的铃(应该是这乐器吧),感觉上多少有点遗憾了。接着一首是同样收自于First Album“はじめまして”里的“ぶらんこりたら”(ぶらんこ就是秋千的意思啦),是首很平很慢的歌,属于润子最善于把握的那种歌。听后感觉很舒服,但总觉得如果是快歌的“シャッタ—チャンスの连续”(也没听说过演唱会一上来就来快的呀)或是能让人回味更加的“坂道”(虽然是首短歌,但比起“ぶらんこりたら”来处理上难度为高)的话就更好了。  

歌声毕,是润子的介绍了。内容无非为欢迎各位以及自己当时的热情满满;还有就是刚才听的两首歌是自己在“はじめまして”里非常喜欢的(是,是吗?那,在下也是非常喜欢的)之类的话。  

接着是首非常特别的歌,“恋がひとつ消えしまったの”。这是润子的一首翻唱歌,原唱呢?是DoCo,不认识?就是乱马,小茜,小摩,小霞和珊璞;林原,日高,高山,井上,佐久间。在“动脉天堂”了解到,DoCo开始只是唱了几首乱马的OP和ED(OVA里那首“equal ロマンス”,比CoCo要棒啊),因反映强烈又出了两张专辑。组合时间虽然短暂,却着着实让人难忘。因为是先听润子版本的,之后才拿到DoCo的专辑,有了先入为主的感觉像这样一首描写失恋少女心情的歌,让五位各具自己声音特色的声优来唱(第一次听感觉很新鲜的,日高小姐好棒!佐久间小姐越听越象只猫),感觉上私总以为都没有润子一个人表现好。(发现个Bug,在DoCo和“はじめまして”的CD歌词里,这首歌的作词都是“乱马歌剧团文艺部”,而Kimochi上却是“Sora”,或是我孤陋寡闻?是同一人?)因为两个版本都是自己喜欢的,不免多说了几句,扯远了。以上,便是从“はじめまして”中选的三首歌。

岩男潤子 - はじめまして(PCCG-00335)


商品番号: PCCG-335

メディア: CD

组枚数: 1

発売日: 1995/04/05

価格: 3059円(税込)

出荷予定在库情报:

メーカー在库少 2-4日

※出荷予定在库情报の表示について

曲目リスト
01.はじめまして 作詞:Sora/作曲 編曲:広谷順子

02.泣かないWeekend 作詞:Sora/作曲 編曲:山本はるきち

03.食卓にルールを 作詞:Sora/作曲 編曲:川井憲次
  
04.ぶらんこ降りたら 作詞:Sora/作曲 編曲:山本はるきち
  
05.恋がひとつ消えてしまったの 作詞:乱馬的歌劇団文芸部(Sora)/
                 作曲 編曲:山本はるきち
  
06.June brideになれなくて 作詞:Sora/作曲 編曲:川井憲次
  
07.朝のキスを 作詞:Sora/作曲 編曲:山本はるきち
  
08.シャッターチャンスの連続 作詞:Sora/作曲 編曲:山本はるきち
  
09.2年あとのプロポーズ 作詞:Sora/作曲:来生たかお/編曲:船山基紀
  
10.坂道 作詞:Sora/作曲 編曲:羽田健太郎


EAC情况

Exact Audio Copy V0.99 prebeta 5 from 4. May 2009

EAC 抓取日志文件从14. 六月 2010, 16:43

岩男潤子  / はじめまして

使用驱动器  :TOSHIBA CD-ROM XM-7002Bc 1M10   Adapter: 1  ID:0

读取模式     : 保护
使用精确流   : 是
废除音频缓冲 : 是
使用 C2 指针 : 否

读取偏移校正                   : 0
读取 Lead-In 和 Lead-Out       : 否
用静音填充抓取中丢失偏移的采样 : 是
去除首尾静音块                 : 否
在 CRC 计算中使用了空样本      : 否
已用接口                       : Win NT 及 2000 本地 Win32 接口

所用输出格式 : 内部 WAV 函数
样本格式     : 44.100 Hz;16 Bit;立体声


被抓轨 CD 的 TOC

     音轨 |   开始   |   长度   | 起始扇区 | 结尾扇区
    --------------------------------------------------
       1  |  0:00.00 |  1:55.56 |       0  |    8680  
       2  |  1:55.56 |  5:11.65 |    8681  |   32070  
       3  |  7:07.46 |  4:36.23 |   32071  |   52793  
       4  | 11:43.69 |  4:35.45 |   52794  |   73463  
       5  | 16:19.39 |  4:37.02 |   73464  |   94240  
       6  | 20:56.41 |  4:07.15 |   94241  |  112780  
       7  | 25:03.56 |  5:50.38 |  112781  |  139068  
       8  | 30:54.19 |  4:25.07 |  139069  |  158950  
       9  | 35:19.26 |  5:25.61 |  158951  |  183386  
      10  | 40:45.12 |  3:36.45 |  183387  |  199631  


范围状态及错误

已选择范围

     文件名 C:\(アルバム)岩男潤子 19950405 はじめまして\岩男潤子  - はじめまして.wav

     峰值电平 99.9 %
     范围质量 100.0 %
     复制 CRC 0442095F
     复制成功

没有错误发生

状态报告结尾

1.jpg
2.jpg
3.jpg
6.jpg
4.jpg
5.jpg
7.jpg
8.jpg
9.jpg
10.jpg
11.jpg
http://u.115.com/file/t34f2f5e90

下載連結已經失效
已有 2 人评分金钱 收起 理由
bobbysu + 25 赞一个!
aiyin + 9 我很赞同

总评分: 金钱 + 34   查看全部评分

401

主题

0

好友

1924

积分

高级会员

豚盟小至尊--小さいイルカ

Rank: 3Rank: 3

在线时间
1723 小时
金钱
1483 円
注册时间
2004-7-24
积分
1924
帖子
8731
UID
515
发表于 2010-6-26 11:47:07 |显示全部楼层
妹的帖子介紹的真祥細 辛苦了 頂上.......
人生來去一場夢
多少塵緣化渺空
若問今生何牽掛
無所求來樂輕鬆

925

主题

27

好友

3万

积分

管理员

Rank: 7Rank: 7Rank: 7

在线时间
4314 小时
金钱
33817 円
注册时间
2003-7-22
积分
34982
帖子
34877
UID
36
发表于 2012-4-26 19:07:14 |显示全部楼层
谢谢分享,原来岩男潤子的1st在这里呢
湖水是你的眼神,梦想满天星辰,心情是一个传说,亘古不变地等候
成长是一扇树叶的门,童年有一群亲爱的人,春天是一段路程,沧海桑田的拥有
那些我爱的人,那些离逝的风,那些永远的誓言一遍一遍
那些爱我的人,那些沉淀的泪,那些永远的誓言一遍一遍

我们都曾有过一张天真而忧伤的脸,手握阳光我们望着遥远
轻轻的一天天一年又一年
长大间我们是否还会再唱起心愿
长大间我们是否还会再唱起心愿

521

主题

6

好友

1万

积分

资深会员

Rank: 4

在线时间
491 小时
金钱
11513 円
注册时间
2012-2-18
积分
12074
帖子
15189
UID
92728

高级会员纪念章 每日一曲月最佳歌曲纪念勋章 资深会员纪念章 每日一曲月优秀歌曲纪念勋章 热心会员勋章 优秀原创勋章

发表于 2012-4-26 21:09:14 |显示全部楼层
还能下载吗?2元的无损太好了
专注论坛、专注音乐、真诚待人,就是半夜改帖子数吗?

9

主题

0

好友

11

积分

普通会员

Rank: 1

在线时间
96 小时
金钱
2 円
注册时间
2011-2-12
积分
11
帖子
926
UID
45685
发表于 2012-4-26 21:42:43 |显示全部楼层
首张是神专~没有任何犹豫~

932

主题

12

好友

1万

积分

资深会员

Rank: 4

在线时间
1887 小时
金钱
12208 円
注册时间
2008-9-11
积分
13200
帖子
3020
UID
20900

原创唱片大赏勋章 资深会员纪念章 全勤纪念勋章 优秀原创勋章

发表于 2012-4-27 01:35:37 |显示全部楼层
感謝分享,很高興收到!
沒有免費的音樂!

38

主题

3

好友

3275

积分

资深会员

Rank: 4

在线时间
253 小时
金钱
3217 円
注册时间
2012-2-25
积分
3275
帖子
6885
UID
94197

每日一曲月最佳歌曲纪念勋章 高级会员纪念章 优秀原创勋章

发表于 2012-4-27 12:06:10 |显示全部楼层
可以下载了,真好

203

主题

6

好友

6521

积分

资深会员

Rank: 4

在线时间
779 小时
金钱
6238 円
注册时间
2009-5-1
积分
6521
帖子
1091
UID
26388

每日一曲月优秀歌曲纪念勋章 优秀原创勋章 资深会员纪念章

发表于 2012-5-4 19:47:16 |显示全部楼层
这个坟好,来下载无损的

246

主题

4

好友

6552

积分

资深会员

Rank: 4

在线时间
272 小时
金钱
6286 円
注册时间
2012-2-3
积分
6552
帖子
642
UID
89635

高级会员纪念章 资深会员纪念章 优秀原创勋章

发表于 2012-5-17 02:28:38 |显示全部楼层
我钱付了还要回复啊

0

主题

0

好友

18

积分

等待验证会员

在线时间
4 小时
金钱
18 円
注册时间
2007-8-10
积分
18
帖子
10
UID
12692
发表于 2012-5-21 22:32:15 |显示全部楼层
链接别给我失效了啊

2

主题

0

好友

2

积分

普通会员

Rank: 1

在线时间
8 小时
金钱
0 円
注册时间
2008-7-30
积分
2
帖子
15
UID
20403
发表于 2012-5-28 07:51:46 |显示全部楼层
好贴!!顶了!!!

5

主题

2

好友

330

积分

认证会员

Rank: 2

在线时间
32 小时
金钱
265 円
注册时间
2012-7-13
积分
330
帖子
44
UID
35564

每日一曲月优秀歌曲纪念勋章 每日一曲月最佳歌曲纪念勋章

发表于 2012-7-16 18:35:16 |显示全部楼层
刚买了个过期的,囧了....希望这个没有过期,感谢楼主分享,喜欢她的歌哈~

1872

主题

4

好友

6781

积分

资深会员

X控 Ms.80后剩童 微迷症 开快车破坏旅馆房间 多愁多病

Rank: 4

在线时间
7983 小时
金钱
4889 円
注册时间
2011-11-8
积分
6781
帖子
12003
UID
78326

每日一曲月优秀歌曲纪念勋章 每日一曲月最佳歌曲纪念勋章 资深会员纪念章 全勤纪念勋章 热心会员勋章 优秀原创勋章 高级会员纪念章 天使勋章

发表于 2013-9-18 04:06:11 |显示全部楼层
很不错的歌手哦
当你見到天上星星,可会想起我。可会記得当年我的脸,曾為你更比星星笑得多!可会怀念我在你心中,照耀過。。。。
http://bbs.javaws.com/home.php?mod=space&uid=78326
X控 Ms.80后剩童 微迷症 开快车破坏旅馆房间 多愁多病身
本人埋伏茬台東附近灬灬灬灬灬灬灬●·幹掉耶穌wǒ就s'神!●·
或许爱情,更像落叶。看似飞翔却在坠落
┏╮/╱ ·ˊ   ╲\╭┛ / ^ 祢芡硪壹個槦佨。丅褙耔,劑嘚渙╰═┛﹖ ︶︶~~~ ̄ 〃℡! ● ·.'
                                  ▂,ènd︷.^灬o
    ╰★╮``                 
    ゛╰┛、'13920102一生就爱你要你爱︷.
AAAメ︷.o`長汏結婚-- メ︷.o诅咒 リ.呦兒圜^灬

我不是唯一因幸福而不安的人灬
要一句诺言,即使明知它与留连于皮肤上的吻痕一般,会失去痕迹^灬o
夜深罖静-唯莪未眠︷.
情缘或者生命,都只是从指尖滑落的水滴,随时都在失去
我怕冷的手,却再也不能握住你的心^灬o
喜欢听着安静的歌,用安静的心情来想你^灬o
洳果傷嗐ωǒ的伈伱能 ┈(快樂)_ 那麼伱繼續

29

主题

1

好友

1486

积分

高级会员

Rank: 3Rank: 3

在线时间
671 小时
金钱
1177 円
注册时间
2013-7-6
积分
1486
帖子
306
UID
202561

每日一曲月优秀歌曲纪念勋章 每日一曲月最佳歌曲纪念勋章

发表于 2014-8-6 17:35:38 |显示全部楼层
这个很珍贵啊,感谢分享。

22

主题

7

好友

648

积分

认证会员

Rank: 2

在线时间
567 小时
金钱
626 円
注册时间
2013-7-13
积分
648
帖子
824
UID
204365
发表于 2015-5-11 07:29:21 |显示全部楼层
thank you very much

2

主题

0

好友

5

积分

普通会员

Rank: 1

在线时间
3 小时
金钱
3 円
注册时间
2011-9-12
积分
5
帖子
5
UID
71309
发表于 2015-7-13 03:08:24 |显示全部楼层
非常好,谢楼主!!
hong9913
您需要登录后才可以回帖 登录 | 注册

手机版|Archiver|日文老歌论坛 ( 沪ICP备05038666号 )

GMT+8, 2020-8-9 01:20 , Processed in 0.159126 second(s), 25 queries .

Powered by Discuz! X2.5

© 2001-2012 Comsenz Inc.

回顶部