每日一歌

日文老歌论坛

 找回密码
 注册
搜索
查看: 328|回复: 3

[华语音乐] 陈慧娴 -《1986 反叛》<宝丽金从头认识版>【WAV/百度云】

[复制链接]
发表于 2020-5-31 08:35:19 | 显示全部楼层 |阅读模式
专辑介绍:
《反叛》是陈慧娴的第四张大碟,在1986年6月28日推出。是由法安利制作公司过档宝丽金制作的第一张大碟。
  专辑的第一主打歌《跳舞街》把陈慧娴重新包装,以日式少女形像获得大众欢迎,另外《痴情意外》、《与泪抱拥》等歌曲也十分流行,令陈慧娴踏上一线歌手之路
曲目:
    01.跳舞街
  02.痴情意外
  03.Love Me Once Again
  04.夏日
  05.六月某天
  06.路
  07.反叛
  08.与泪抱拥
  09.坏习惯
  10.忘记悲伤
  11.墙
购买主题 本主题需向作者支付 5 円金钱 才能浏览
发表于 2020-5-31 10:04:04 | 显示全部楼层
感謝分享 陳慧嫻 - 反叛
发表于 2020-5-31 12:03:25 | 显示全部楼层
里面没有cue文件,请检查
 楼主| 发表于 2020-5-31 21:17:30 | 显示全部楼层
孤愤 发表于 2020-5-31 12:03
里面没有cue文件,请检查

不好意思:就这个
REM GENRE POP
REM DATE 1986
PERFORMER "陈慧娴"WAVE
TITLE"反叛"
FILE "CDImage.wav"WAVE
  TRACK 01 AUDIO
    TITLE "跳舞街"
    INDEX 01 00:00:00
  TRACK 02 AUDIO
    TITLE "痴情意外"
    INDEX 00 03:44:00
    INDEX 01 03:47:00
  TRACK 03 AUDIO
    TITLE "Love Me Once Again"
    INDEX 00 07:31:00
    INDEX 01 07:34:00
  TRACK 04 AUDIO
    TITLE "夏日"
    INDEX 00 11:20:50
    INDEX 01 11:23:50
  TRACK 05 AUDIO
    TITLE "六月某天"
    INDEX 00 14:56:50
    INDEX 01 14:59:50
  TRACK 06 AUDIO
    TITLE "路"
    INDEX 00 19:11:25
    INDEX 01 19:14:25
  TRACK 07 AUDIO
    TITLE "反叛"
    INDEX 00 23:03:37
    INDEX 01 23:06:37
  TRACK 08 AUDIO
    TITLE "与泪抱拥"
    INDEX 00 27:25:37
    INDEX 01 27:28:37
  TRACK 09 AUDIO
    TITLE "坏习惯"
    INDEX 00 32:00:25
    INDEX 01 32:03:25
  TRACK 10 AUDIO
    TITLE "忘记悲伤"
    INDEX 00 35:53:37
    INDEX 01 35:56:37
  TRACK 11 AUDIO
    TITLE "墙"
    INDEX 00 40:48:00
    INDEX 01 40:51:00
您需要登录后才可以回帖 登录 | 注册

本版积分规则

小黑屋|手机版|Archiver|日文老歌论坛 ( 沪ICP备05038666号 )

GMT+8, 2021-9-28 22:43 , Processed in 0.133426 second(s), 12 queries , File On.

Powered by Discuz! X3.4

Copyright © 2001-2021, Tencent Cloud.

快速回复 返回顶部 返回列表