每日一歌

日文老歌论坛

 找回密码
 注册
搜索
查看: 58|回复: 1

[专辑] [WAV]谷村新司 2015 NIHON~ハレバレ[原抓/百度云]

[复制链接]

14

主题

2

好友

457

积分

认证会员

Rank: 2

在线时间
146 小时
金钱
443 円
注册时间
2014-11-24
积分
457
帖子
226
UID
342030
发表于 2019-4-29 14:28:04 |显示全部楼层
本帖最后由 nwamtf 于 2019-4-29 14:40 编辑

专辑:NIHON~ハレバレ~
歌手:谷村新司
语言:日语
风格:J-POP
发行时间:2015-04-22
资源格式:WAV+CUE+LOG+手机大图
唱片公司:Vap

专辑介绍:
5年ぶりとなる待望のオリジナル.アルバム発売決定!!北陸新幹線CMソングで話題の?「北陸ロマン」も収録された 日本の文化を歌で繋ぐ最強のタカラヅクシなアルバム!


专辑曲目:

01.ハレバレ
        
02.寿留女~スルメ~  
      
03.タカラヅクシ
      
04.サクラサク  
      
05.梅.桃.桜
      
06.北陸ロマン
      
07.やくそくの樹の下で
      
08.鶴と亀
        
09.風の時代
      
10.家
      
11.吟遊詩人
      
12.夢路  
      
13.MIRAI

链接: http://pan.baidu.com/s/1mgu5adi 密码: x36u
mm.rar (155 Bytes, 下载次数: 4, 售价: 20 円金钱)

cover.jpg

CD.jpg

back.jpg

谷村新司1.jpg
  1. Exact Audio Copy V1.0 beta 2 from 29. April 2011

  2. EAC日志文件创建时间:1. 十月 2015, 12:27

  3. 谷村新司 / NIHON〜ハレバレ

  4. 光驱型号   HL-DT-STDVD-RAM GH22NP20 Adapter: 0 ID: 0

  5. 抓轨模式   : 精确模式
  6. 使用精确流  : 是
  7. 屏蔽数据缓存 : 是
  8. 使用C2纠错 : 否

  9. 读取偏移校正             : 0
  10. 通读Lead-In和Lead-Out : 否
  11. 用静音填充丢失的偏移采样       : 是
  12. 删除开始与结尾的静音部分       : 否
  13. 校验和计算中使用空白采样       : 否
  14. 使用的接口              : Win NT & 2000 的本地Win32接口

  15. 输出格式    : 内部WAV例程
  16. 采样格式    : 44.100 Hz; 16 Bit; 立体声


  17. CD内容目录(TOC)

  18. Track | Start | Length | Start sector | End sector
  19. ---------------------------------------------------------
  20. 1 | 0:00.00 | 5:13.55 | 0 | 23529
  21. 2 | 5:13.55 | 4:00.42 | 23530 | 41571
  22. 3 | 9:14.22 | 4:32.38 | 41572 | 62009
  23. 4 | 13:46.60 | 4:52.60 | 62010 | 83969
  24. 5 | 18:39.45 | 3:59.10 | 83970 | 101904
  25. 6 | 22:38.55 | 4:34.52 | 101905 | 122506
  26. 7 | 27:13.32 | 3:21.03 | 122507 | 137584
  27. 8 | 30:34.35 | 3:58.15 | 137585 | 155449
  28. 9 | 34:32.50 | 3:33.67 | 155450 | 171491
  29. 10 | 38:06.42 | 4:54.18 | 171492 | 193559
  30. 11 | 43:00.60 | 4:20.37 | 193560 | 213096
  31. 12 | 47:21.22 | 3:18.63 | 213097 | 228009
  32. 13 | 50:40.10 | 4:47.45 | 228010 | 249579


  33. ===以下为抓取选定区域的结果报告===

  34. 选定区域为(空白为全盘镜像):

  35. 抓轨文件 :D:\My Documents\我的音乐\谷村新司 - NIHON〜ハレバレ.wav

  36. 峰值电平 :97.9 %
  37. 抓轨速度 :2.7 X
  38. 范围质量 :100.0 %
  39. 复制CRC:665E4AD1
  40. 复制成功 !

  41. 没有错误发生

  42. 日志文件结束
复制代码
已有 3 人评分金钱 收起 理由
GeorgeTW + 17 很给力!
elong123 + 20 赞一个!
bobbysu + 20 感謝您的分享

总评分: 金钱 + 57   查看全部评分

77

主题

9

好友

344

积分

认证会员

Rank: 2

在线时间
1706 小时
金钱
267 円
注册时间
2012-4-8
积分
344
帖子
2818
UID
103215

高级会员纪念章

发表于 2019-5-2 16:16:53 |显示全部楼层
看来,人气有点涣散。

支持楼主的无私分享!
您需要登录后才可以回帖 登录 | 注册

手机版|Archiver|日文老歌论坛 ( 沪ICP备05038666号 )

GMT+8, 2019-5-21 05:17 , Processed in 0.104590 second(s), 26 queries .

Powered by Discuz! X2.5

© 2001-2012 Comsenz Inc.

回顶部