每日一歌

日文老歌论坛

 找回密码
 注册
搜索
查看: 530|回复: 26

[二传] 細川たかし-北酒場 心のこり EP [WAV/BAIDU]

[复制链接]

38

主题

3

好友

517

积分

认证会员

Rank: 2

在线时间
750 小时
金钱
479 円
注册时间
2013-7-11
积分
517
帖子
1425
UID
203819
发表于 2019-2-11 15:26:52 |显示全部楼层
PERFORMER "細川たかし"
TITLE "北酒場/心のこり"
FILE "北酒場/心のこり - 細川たかし.wav" WAVE
  TRACK 01 AUDIO
    TITLE "北酒場"
    INDEX 01 00:00:00
  TRACK 02 AUDIO
    TITLE "北酒場(オリジナルカラオケ)"
    INDEX 01 03:47:23
  TRACK 03 AUDIO
    TITLE "心のこり"
    INDEX 01 07:35:03
  TRACK 04 AUDIO
    TITLE "心のこり(オリジナルカラオケ)"
    INDEX 01 11:13:23

4c131023dd54564e3bfc00fabfde9c82d0584f1b.jpg


网络资源,感谢原创
游客,如果您要查看本帖隐藏内容请回复

已有 4 人评分金钱 收起 理由
GeorgeTW + 10 感謝分享高知名曲目CD單曲
bobbysu + 15 赞一个!
87167 + 15 赞一个!
elong123 + 17 很给力!

总评分: 金钱 + 57   查看全部评分

186

主题

0

好友

1393

积分

高级会员

Rank: 3Rank: 3

在线时间
402 小时
金钱
1207 円
注册时间
2014-9-1
积分
1393
帖子
3891
UID
313444
发表于 2019-2-11 16:15:44 |显示全部楼层
多谢楼主分享

65

主题

1

好友

3657

积分

资深会员

Rank: 4

在线时间
1388 小时
金钱
3592 円
注册时间
2017-5-20
积分
3657
帖子
2217
UID
495148
发表于 2019-2-11 17:56:22 |显示全部楼层
感谢分享細川たかし-北酒場 心のこり EP

0

主题

0

好友

1277

积分

高级会员

Rank: 3Rank: 3

在线时间
1354 小时
金钱
1277 円
注册时间
2013-1-1
积分
1277
帖子
11115
UID
156339
发表于 2019-2-11 18:19:07 |显示全部楼层
感谢771155分享!

177

主题

1

好友

3400

积分

资深会员

Rank: 4

在线时间
1030 小时
金钱
3223 円
注册时间
2012-1-15
积分
3400
帖子
6032
UID
87573
发表于 2019-2-11 21:51:42 |显示全部楼层
谢谢啦。我赶上啦。收藏。

70

主题

0

好友

122

积分

认证会员

Rank: 2

在线时间
755 小时
金钱
52 円
注册时间
2015-1-15
积分
122
帖子
1106
UID
359081
发表于 2019-2-11 22:27:42 |显示全部楼层
感謝分享好聽的日語歌曲

14

主题

1

好友

22

积分

普通会员

Rank: 1

在线时间
1027 小时
金钱
8 円
注册时间
2011-11-16
积分
22
帖子
872
UID
79205
发表于 2019-2-11 23:15:57 |显示全部楼层
谢谢分享细川的名曲细碟

10

主题

1

好友

420

积分

认证会员

Rank: 2

在线时间
256 小时
金钱
410 円
注册时间
2019-1-23
积分
420
帖子
293
UID
509621
发表于 2019-2-12 08:34:20 |显示全部楼层
感谢楼主分享。

79

主题

7

好友

2029

积分

新人审核版主

Rank: 5Rank: 5

在线时间
3646 小时
金钱
1950 円
注册时间
2013-11-4
积分
2029
帖子
9062
UID
233903
发表于 2019-2-12 09:05:08 |显示全部楼层
感謝分享 細川 たかし - 北酒場 / 心のこり [EP]

1

主题

0

好友

25

积分

普通会员

Rank: 1

在线时间
33 小时
金钱
24 円
注册时间
2018-10-18
积分
25
帖子
175
UID
508822
发表于 2019-2-12 09:48:27 |显示全部楼层
感谢分享北酒场

99

主题

0

好友

1303

积分

高级会员

Rank: 3Rank: 3

在线时间
542 小时
金钱
1204 円
注册时间
2018-6-14
积分
1303
帖子
1275
UID
507982
发表于 2019-2-12 11:06:02 |显示全部楼层
好碟,谢谢楼主分享!

561

主题

1

好友

4845

积分

资深会员

Rank: 4

在线时间
2090 小时
金钱
4284 円
注册时间
2015-7-29
积分
4845
帖子
4925
UID
403283
发表于 2019-2-12 12:01:19 |显示全部楼层
感謝樓主分享!  

10

主题

2

好友

425

积分

认证会员

Rank: 2

在线时间
318 小时
金钱
415 円
注册时间
2011-2-3
积分
425
帖子
1623
UID
47413
发表于 2019-2-12 16:47:09 |显示全部楼层

感謝樓主分享!  

0

主题

0

好友

0

积分

普通会员

Rank: 1

在线时间
12 小时
金钱
0 円
注册时间
2012-12-15
积分
0
帖子
40
UID
152914
发表于 2019-2-19 20:08:24 |显示全部楼层

多谢楼主分享

95

主题

0

好友

2679

积分

资深会员

Rank: 4

在线时间
562 小时
金钱
2584 円
注册时间
2014-6-29
积分
2679
帖子
1336
UID
297389
发表于 2019-2-19 23:41:47 |显示全部楼层
谢谢分享細川たかし-北酒場

1

主题

0

好友

1

积分

普通会员

Rank: 1

在线时间
40 小时
金钱
0 円
注册时间
2017-5-29
积分
1
帖子
56
UID
495991
发表于 2019-4-9 21:20:59 |显示全部楼层
感謝樓主分享

5

主题

1

好友

355

积分

认证会员

Rank: 2

在线时间
264 小时
金钱
350 円
注册时间
2009-8-7
积分
355
帖子
346
UID
28422
发表于 2019-4-13 22:49:29 |显示全部楼层
多谢楼主分享

18

主题

1

好友

3459

积分

资深会员

Rank: 4

在线时间
343 小时
金钱
3441 円
注册时间
2017-11-25
积分
3459
帖子
342
UID
507098
发表于 2019-4-14 11:07:29 |显示全部楼层
謝謝分享 ~細川 たかし - 北酒場 / 心のこり~

26

主题

1

好友

71

积分

普通会员

Rank: 1

在线时间
584 小时
金钱
45 円
注册时间
2014-10-30
积分
71
帖子
1117
UID
333144
发表于 2019-4-14 12:54:11 |显示全部楼层
谢谢提供资源分享!

12

主题

1

好友

337

积分

认证会员

Rank: 2

在线时间
213 小时
金钱
325 円
注册时间
2018-7-1
积分
337
帖子
113
UID
508072
发表于 2019-5-14 19:36:10 |显示全部楼层
支持,感謝分享

0

主题

0

好友

0

积分

普通会员

Rank: 1

在线时间
3 小时
金钱
0 円
注册时间
2016-2-10
积分
0
帖子
6
UID
433697
发表于 2019-5-30 17:54:53 |显示全部楼层
这张简直是神单!

1

主题

0

好友

16

积分

普通会员

Rank: 1

在线时间
10 小时
金钱
15 円
注册时间
2019-4-27
积分
16
帖子
23
UID
510547
发表于 2019-7-9 13:25:41 |显示全部楼层
感謝樓主無私分享!

1

主题

0

好友

9

积分

普通会员

Rank: 1

在线时间
3 小时
金钱
8 円
注册时间
2019-7-10
积分
9
帖子
14
UID
511377
发表于 2019-7-11 09:42:21 |显示全部楼层
谢楼主分享

6

主题

1

好友

182

积分

认证会员

Rank: 2

在线时间
160 小时
金钱
176 円
注册时间
2019-2-18
积分
182
帖子
249
UID
509862
发表于 2019-8-2 12:13:53 |显示全部楼层
谢谢分享  細川たかし-北酒場 心のこり EP [WAV/BAIDU]

15

主题

0

好友

286

积分

认证会员

Rank: 2

在线时间
48 小时
金钱
271 円
注册时间
2019-4-13
积分
286
帖子
78
UID
510395
发表于 2019-9-15 05:10:09 |显示全部楼层
thanks for sharing this single!

1

主题

0

好友

26

积分

普通会员

Rank: 1

在线时间
7 小时
金钱
25 円
注册时间
2007-1-13
积分
26
帖子
19
UID
6342
发表于 2019-9-17 15:24:55 |显示全部楼层
感謝分享 細川 たかし

0

主题

0

好友

44

积分

普通会员

Rank: 1

在线时间
61 小时
金钱
44 円
注册时间
2019-8-23
积分
44
帖子
396
UID
511871
发表于 2019-10-3 22:56:10 |显示全部楼层
細川たかし,《北酒場 心のこり》ep,谢谢分享。
您需要登录后才可以回帖 登录 | 注册

手机版|Archiver|日文老歌论坛 ( 沪ICP备05038666号 )

GMT+8, 2019-10-15 05:19 , Processed in 0.428134 second(s), 26 queries .

Powered by Discuz! X2.5

© 2001-2012 Comsenz Inc.

回顶部