每日一歌

日文老歌论坛

 找回密码
 注册
搜索
12
返回列表 发新帖
楼主: qp0800

[华语音乐] 櫻花姊妹 - 國語老歌 2

[复制链接]
发表于 2018-4-16 14:00:11 | 显示全部楼层
感謝提供分享,辛苦了,謝謝
发表于 2018-4-20 17:42:56 | 显示全部楼层
好好好 酷酷酷酷酷酷酷酷酷
发表于 2018-4-21 18:39:39 | 显示全部楼层
谢谢分享櫻花姊妹 - 國語老歌 2
发表于 2018-4-22 22:31:24 | 显示全部楼层
好曲目,这张专辑没听过,怀念
发表于 2018-4-22 22:46:54 | 显示全部楼层
REM DISCID AA09C50C
REM COMMENT "ExactAudioCopy v1.0b3"
PERFORMER "櫻花姊妹"
TITLE "國語老歌 2"
FILE "櫻花姊妹 - 國語老歌 2.ape" WAVE
  TRACK 01 AUDIO
    TITLE "聽說你要走"
    PERFORMER "櫻花姊妹"
    INDEX 01 00:00:00
  TRACK 02 AUDIO
    TITLE "萍水相逢的人"
    PERFORMER "櫻花姊妹"
    INDEX 00 03:39:50
    INDEX 01 03:42:30
  TRACK 03 AUDIO
    TITLE "我需要安慰"
    PERFORMER "櫻花姊妹"
    INDEX 00 07:20:38
    INDEX 01 07:23:58
  TRACK 04 AUDIO
    TITLE "淡淡情愁"
    PERFORMER "櫻花姊妹"
    INDEX 00 11:17:14
    INDEX 01 11:20:13
  TRACK 05 AUDIO
    TITLE "有句話"
    PERFORMER "櫻花姊妹"
    INDEX 00 14:22:38
    INDEX 01 14:24:63
  TRACK 06 AUDIO
    TITLE "夕陽下的祝福"
    PERFORMER "櫻花姊妹"
    INDEX 00 17:35:00
    INDEX 01 17:38:00
  TRACK 07 AUDIO
    TITLE "你問我要什麼"
    PERFORMER "櫻花姊妹"
    INDEX 00 20:52:38
    INDEX 01 20:55:20
  TRACK 08 AUDIO
    TITLE "相見不如懷念"
    PERFORMER "櫻花姊妹"
    INDEX 00 24:34:00
    INDEX 01 24:37:00
  TRACK 09 AUDIO
    TITLE "對你懷念特別多"
    PERFORMER "櫻花姊妹"
    INDEX 00 27:56:63
    INDEX 01 27:59:25
  TRACK 10 AUDIO
    TITLE "再會吧!心上人"
    PERFORMER "櫻花姊妹"
    INDEX 00 31:00:25
    INDEX 01 31:03:00
  TRACK 11 AUDIO
    TITLE "我為他祈禱"
    PERFORMER "櫻花姊妹"
    INDEX 00 34:21:13
    INDEX 01 34:24:13
  TRACK 12 AUDIO
    TITLE "往事難追憶"
    PERFORMER "櫻花姊妹"
    INDEX 00 38:10:38
    INDEX 01 38:13:25
发表于 2018-4-26 21:02:14 | 显示全部楼层
这个有过MP3的!升级了,谢谢朋友!
发表于 2018-4-30 22:07:53 | 显示全部楼层
十分感谢楼主的分享
发表于 2018-5-4 15:26:41 | 显示全部楼层
从没听过的櫻花姊妹
发表于 2018-5-14 10:43:26 | 显示全部楼层
支持华语音乐
发表于 2018-5-16 10:19:05 | 显示全部楼层
感謝樓主的分享
发表于 2018-6-4 09:32:06 | 显示全部楼层
辛苦了  万分感谢
发表于 2018-8-17 19:19:55 | 显示全部楼层
谢谢了,好听.
发表于 2018-8-23 15:03:36 | 显示全部楼层
谢谢分享櫻花姊妹 - 國語老歌 2
发表于 2018-9-27 01:26:58 | 显示全部楼层
很不错的经典老歌专辑谢谢分享
发表于 2018-10-5 07:45:33 | 显示全部楼层
感谢楼主的分享
发表于 2018-10-11 20:39:04 | 显示全部楼层
听过台语的,国语的也不错
发表于 2018-10-13 17:43:14 | 显示全部楼层
老歌才OK,谢谢!
发表于 2018-10-19 18:08:41 | 显示全部楼层
樱花姊妹的国语老歌好听.继续支持.
发表于 2018-12-4 19:17:20 | 显示全部楼层
很好听的台语歌曲,谢谢分享,感谢楼主
发表于 2019-8-8 14:55:13 | 显示全部楼层
谢谢楼主分享的櫻花姊妹國語老歌
您需要登录后才可以回帖 登录 | 注册

本版积分规则

小黑屋|手机版|Archiver|日文老歌论坛 ( 沪ICP备05038666号 )

GMT+8, 2021-9-19 06:00 , Processed in 0.045510 second(s), 6 queries , File On.

Powered by Discuz! X3.4

Copyright © 2001-2021, Tencent Cloud.

快速回复 返回顶部 返回列表