每日一歌

日文老歌论坛

 找回密码
 注册
搜索
查看: 4197|回复: 95

[专辑] 河合奈保子-《GOLDEN☆BEST》精选辑[flac]

[复制链接]

3

主题

0

好友

153

积分

认证会员

Rank: 2

在线时间
7 小时
金钱
150 円
注册时间
2018-6-7
积分
153
帖子
20
UID
507946
发表于 2018-7-19 10:41:04 |显示全部楼层
本帖最后由 bobbysu 于 2018-7-21 06:46 编辑

河合奈保子 - ゴールデン☆ベスト ~A面コレクション~



CD (2013/1/23)
ディスク枚数: 2
レーベル: 日本コロムビア
収録時間: 152 分
ASIN: B00A3QYUPC
JAN: 4988001741459

内容紹介
今あるJ-POPの礎となった音楽を、心をこめてあなたに伝えたい・・・。

メディア掲載レビューほか
根強い人気を誇る1980年代に活躍した河合奈保子のゴールデン☆ベスト。本作はA面集。

唱功很不错的一位日本女歌手,推荐一听她的《十六夜物语》和《ハーフムーン・セレナーデ》,很有气势,
尤其是后一首被李克勤翻唱成《夜半小夜曲》。

Disc 1
1. 大きな森の小さなお家 3:45
2. ヤング・ボーイ 3:43
3. 愛してます 3:42
4. 17才 3:38
5. スマイル・フォー・ミー 3:38
6. ムーンライト・キッス 2:45
7. ラブレター 3:15
8. 愛をください 4:10
9. 夏のヒロイン 4:03
10. けんかをやめて 4:31
11. Invitation 3:57
12. ストロー・タッチの恋 4:04
13. エスカレーション 3:20
14. UNバランス 3:51
15. 疑問符 4:21
16. 微風のメロディー 3:57
17. コントロール 3:48
18. 唇のプライバシー 3:42
19. 北駅のソリチュード 3:55
20. ジェラス・トレイン 4:16

Disc 2
1. デビュー~Fly Me To Love 3:58
2. ラヴェンダー・リップス 4:34
3. THROUGH THE WINDOW ~月に降る雪~ 3:50
4. 涙のハリウッド 4:04
5. 刹那の夏 3:53
6. ハーフムーン・セレナーデ 5:30
7. 十六夜物語 4:57
8. 悲しい人 4:33
9. Harbour Light Memories 4:15
10. 悲しみのアニバァサリー ~Come again~ 5:30
11. 美・来 3:57
12. 眠る、眠る、眠る 4:34
13. Golden sunshine day 3:37
14. エンゲージ 5:20
15. 夢の跡から 4:20
16. 君は綺麗なままで <ボーナス・トラック> (NAO & NOBU) 3:51
17. 愛のセレナーデ <ボーナス・トラック> (河合奈保子&ジャッキー・チェン) 4:04
18. ちょっとだけ秘密 <ボーナス・トラック> (奈保子&小金沢くん) 3:06

顺带求中森明菜的《Fin》无损,谁有分享一下哦。

cue 檔案在2樓

游客,如果您要查看本帖隐藏内容请回复

已有 4 人评分金钱 收起 理由
tingfeng + 15 感谢分享!
elong123 + 20 赞一个!
GeorgeTW + 25 感謝您的分享,辛苦了!
bobbysu + 25 感謝您的分享

总评分: 金钱 + 85   查看全部评分

225

主题

21

好友

1万

积分

版主

Rank: 5Rank: 5

在线时间
3267 小时
金钱
14209 円
注册时间
2012-1-1
积分
14454
帖子
2935
UID
40264

高级会员纪念章 全勤纪念勋章 优秀原创勋章

发表于 2018-7-19 18:26:46 |显示全部楼层
本帖最后由 GeorgeTW 于 2018-7-20 03:11 编辑

年輕時的偶像歌手,スマイル・フォー・ミー的旋律不時在心中廻響著!感謝您的分享,辛苦了!

cue播放文件

PERFORMER "河合奈保子"
TITLE "ゴールデン☆ベスト ~A面コレクション~"
FILE ".\河合奈保子+-+GOLDEN☆BEST+A-Side+Collection+Disc1.flac" WAVE
  TRACK 01 AUDIO
    TITLE "大きな森の小さなお家"
    INDEX 01 00:00:00
  TRACK 02 AUDIO
    TITLE "ヤング・ボーイ"
    INDEX 01 03:45:51
  TRACK 03 AUDIO
    TITLE "愛してます"
    INDEX 01 07:28:49
  TRACK 04 AUDIO
    TITLE "17才"
    INDEX 01 11:11:58
  TRACK 05 AUDIO
    TITLE "スマイル・フォー・ミー"
    INDEX 01 14:49:55
  TRACK 06 AUDIO
    TITLE "ムーンライト・キッス"
    INDEX 01 18:27:59
  TRACK 07 AUDIO
    TITLE "ラブレター"
    INDEX 01 21:13:55
  TRACK 08 AUDIO
    TITLE "愛をください"
    INDEX 01 24:28:59
  TRACK 09 AUDIO
    TITLE "夏のヒロイン"
    INDEX 01 28:38:59
  TRACK 010 AUDIO
    TITLE "けんかをやめて"
    INDEX 01 32:42:59
  TRACK 11 AUDIO
    TITLE "Invitation"
    INDEX 01 37:14:02
  TRACK 12 AUDIO
    TITLE "ストロー・タッチの恋"
    INDEX 01 41:11:59
  TRACK 13 AUDIO
    TITLE "エスカレーション"
    INDEX 01 45:15:59
  TRACK 14 AUDIO
    TITLE "UNバランス"
    INDEX 01 48:36:59
  TRACK 15 AUDIO
    TITLE "疑問符"
    INDEX 01 52:27:59
  TRACK 16 AUDIO
    TITLE "微風のメロディー"
    INDEX 01 56:48:59
  TRACK 17 AUDIO
    TITLE "コントロール"
    INDEX 01 60:45:59
  TRACK 18 AUDIO
    TITLE "唇のプライバシー"
    INDEX 01 64:34:59
  TRACK 19 AUDIO
    TITLE "北駅のソリチュード"
    INDEX 01 68:17:28
  TRACK 20 AUDIO
    TITLE "ジェラス・トレイン"
    INDEX 01 72:12:59

FILE ".\河合奈保子+-+GOLDEN☆BEST+A-Side+Collection+Disc2.flac" WAVE
  TRACK 01 AUDIO
    TITLE "デビュー~Fly Me To Love"
    INDEX 01 00:00:00
  TRACK 02 AUDIO
    TITLE "ラヴェンダー・リップス"
    INDEX 01 03:58:16
  TRACK 03 AUDIO
    TITLE "THROUGH THE WINDOW~月に降る雪~"
    INDEX 01 08:32:44
  TRACK 04 AUDIO
    TITLE "涙のハリウッド"
    INDEX 01 12:22:53
  TRACK 05 AUDIO
    TITLE "刹那の夏"
    INDEX 01 16:27:45
  TRACK 06 AUDIO
    TITLE "ハーフムーン・セレナーデ"
    INDEX 01 20:21:40
  TRACK 07 AUDIO
    TITLE "十六夜物語"
    INDEX 01 25:51:59
  TRACK 08 AUDIO
    TITLE "悲しい人"
    INDEX 01 30:48:59
  TRACK 09 AUDIO
    TITLE "Harbour Light Memories"
    INDEX 01 35:22:00
  TRACK 010 AUDIO
    TITLE "悲しみのアニバァサリー~Come again~"
    INDEX 01 39:37:59
  TRACK 11 AUDIO
    TITLE "美・来"
    INDEX 01 45:08:29
  TRACK 12 AUDIO
    TITLE "眠る、眠る、眠る"
    INDEX 01 49:05:59
  TRACK 13 AUDIO
    TITLE "Golden sunshine day"
    INDEX 01 53:40:59
  TRACK 14 AUDIO
    TITLE "エンゲージ"
    INDEX 01 57:18:05
  TRACK 15 AUDIO
    TITLE "夢の跡から"
    INDEX 01 62:39:59
  TRACK 16 AUDIO
    TITLE "君は綺麗なままで-ボーナス・トラック(NAO& NOBU)"
    INDEX 01 67:01:10
  TRACK 17 AUDIO
    TITLE "愛のセレナーデ-ボーナス・トラック (河合奈保子&ジャッキー・チェン)"
    INDEX 01 70:50:56
  TRACK 18 AUDIO
    TITLE "ちょっとだけ秘密-ボーナス・トラック (奈保子&小金沢くん)"
    INDEX 01 74:55:07
已有 2 人评分金钱 收起 理由
tingfeng + 5 感谢版主提供CUE文件!
bobbysu + 5 感謝提供資訊

总评分: 金钱 + 10   查看全部评分

22

主题

0

好友

29

积分

普通会员

Rank: 1

在线时间
434 小时
金钱
7 円
注册时间
2011-2-3
积分
29
帖子
476
UID
47430
发表于 2018-7-19 22:04:36 |显示全部楼层
用eac用安全模式 可以提取整轨wav 带cue 带log
已有 1 人评分金钱 收起 理由
bobbysu + 5 感謝提供資訊

总评分: 金钱 + 5   查看全部评分

28

主题

2

好友

5693

积分

资深会员

Rank: 4

在线时间
577 小时
金钱
5665 円
注册时间
2017-11-25
积分
5693
帖子
580
UID
507098
发表于 2018-7-19 22:33:52 |显示全部楼层
謝謝分享!
河合奈保子 - ゴールデン☆ベスト ~A面コレクション~

618

主题

4

好友

8519

积分

资深会员

Rank: 4

在线时间
1578 小时
金钱
7881 円
注册时间
2017-6-21
积分
8519
帖子
2242
UID
498179

高级会员纪念章 资深会员纪念章

发表于 2018-7-20 17:38:30 |显示全部楼层
感谢楼主分享河合奈保子 - ゴールデン☆ベスト ~A面コレクション~,《ハーフムーン・セレナーデ》很好听!

179

主题

1

好友

1345

积分

高级会员

Rank: 3Rank: 3

在线时间
1232 小时
金钱
1166 円
注册时间
2012-1-15
积分
1345
帖子
7416
UID
87573
发表于 2018-7-23 07:21:56 |显示全部楼层
辛苦编辑分享。

23

主题

0

好友

220

积分

认证会员

Rank: 2

在线时间
188 小时
金钱
197 円
注册时间
2014-1-4
积分
220
帖子
453
UID
237322
发表于 2018-7-31 16:32:52 |显示全部楼层
建议楼主上传cue文件

192

主题

13

好友

3702

积分

资深会员

Rank: 4

在线时间
3035 小时
金钱
3510 円
注册时间
2013-5-18
积分
3702
帖子
3713
UID
188692

高级会员纪念章 全勤纪念勋章

发表于 2018-7-31 18:04:18 |显示全部楼层
感谢楼主分享资源。
寻找下列无损资源:長山洋子偶像时代无损专辑、吉沢秋絵、薬師寺容子和麻生真美子的无损资源。如果哪位网友收藏过并且肯分享,请在论坛留言与我联系。thanks a lot.

0

主题

0

好友

10

积分

普通会员

Rank: 1

在线时间
7 小时
金钱
10 円
注册时间
2018-8-7
积分
10
帖子
11
UID
508276
发表于 2018-8-7 17:39:10 |显示全部楼层
Thank you very much!

45

主题

3

好友

613

积分

认证会员

Rank: 2

在线时间
885 小时
金钱
568 円
注册时间
2013-7-11
积分
613
帖子
1814
UID
203819
发表于 2018-8-9 10:11:07 |显示全部楼层
感谢分享,收藏了

0

主题

0

好友

20

积分

普通会员

Rank: 1

在线时间
23 小时
金钱
20 円
注册时间
2018-8-12
积分
20
帖子
35
UID
508310
发表于 2018-9-15 23:03:55 |显示全部楼层
感谢楼主分享

30

主题

1

好友

856

积分

认证会员

Rank: 2

在线时间
297 小时
金钱
826 円
注册时间
2018-7-26
积分
856
帖子
102
UID
508208
发表于 2018-9-16 10:14:17 |显示全部楼层
《十六夜物语》和《ハーフムーン・セレナーデ》正是最喜欢的

21

主题

2

好友

106

积分

认证会员

Rank: 2

在线时间
164 小时
金钱
85 円
注册时间
2018-8-20
积分
106
帖子
211
UID
508375
发表于 2018-9-18 09:04:50 |显示全部楼层
Thank you very much for sharing!

130

主题

0

好友

3874

积分

禁止访问

在线时间
857 小时
金钱
3744 円
注册时间
2018-6-14
积分
3874
帖子
1690
UID
507982

资深会员纪念章

发表于 2018-9-18 11:54:00 |显示全部楼层
提示: 作者被禁止或删除 内容自动屏蔽

0

主题

0

好友

0

积分

普通会员

Rank: 1

在线时间
1 小时
金钱
0 円
注册时间
2011-12-27
积分
0
帖子
1
UID
56801
发表于 2018-10-7 13:31:55 |显示全部楼层
thank you so much




























































0

主题

0

好友

16

积分

普通会员

Rank: 1

在线时间
169 小时
金钱
16 円
注册时间
2018-8-17
积分
16
帖子
71
UID
508356
发表于 2018-10-7 15:15:53 |显示全部楼层
thank you for sharing this album

1

主题

0

好友

22

积分

普通会员

Rank: 1

在线时间
8 小时
金钱
21 円
注册时间
2018-11-7
积分
22
帖子
22
UID
508977
发表于 2018-11-11 20:06:15 |显示全部楼层
多谢楼主分享

1

主题

0

好友

8

积分

普通会员

Rank: 1

在线时间
4 小时
金钱
7 円
注册时间
2018-10-13
积分
8
帖子
6
UID
508784
发表于 2018-11-15 00:09:24 |显示全部楼层
感谢楼主的音乐分享!

0

主题

0

好友

20

积分

普通会员

Rank: 1

在线时间
23 小时
金钱
20 円
注册时间
2018-8-12
积分
20
帖子
35
UID
508310
发表于 2018-11-15 18:12:22 |显示全部楼层
我没下载cue文件,不过用Foobar2000直接打开就默认分好轨了,好奇怪

2

主题

0

好友

30

积分

普通会员

Rank: 1

在线时间
39 小时
金钱
28 円
注册时间
2018-10-4
积分
30
帖子
95
UID
508725
发表于 2018-11-15 19:02:46 来自手机 |显示全部楼层
非常谢谢楼主无私分享!

1

主题

0

好友

21

积分

普通会员

Rank: 1

在线时间
4 小时
金钱
20 円
注册时间
2018-11-3
积分
21
帖子
6
UID
508935
发表于 2018-11-15 22:20:36 |显示全部楼层
都是经典曲目,谢谢分享。

22

主题

1

好友

889

积分

认证会员

Rank: 2

在线时间
461 小时
金钱
867 円
注册时间
2018-7-1
积分
889
帖子
150
UID
508072
发表于 2018-11-15 23:54:10 |显示全部楼层
感謝分享河合奈保子精選,很有才華的偶像派歌手。

5

主题

0

好友

254

积分

认证会员

Rank: 2

在线时间
60 小时
金钱
249 円
注册时间
2018-11-24
积分
254
帖子
74
UID
509097
发表于 2018-11-25 13:23:00 |显示全部楼层
支持创作歌女的精选集。

5

主题

0

好友

1467

积分

高级会员

Rank: 3Rank: 3

在线时间
148 小时
金钱
1462 円
注册时间
2015-8-14
积分
1467
帖子
968
UID
405316
发表于 2018-12-6 21:30:42 |显示全部楼层
後來總算搞清楚了 格式工廠也能轉CD成flac
真是知道也太晚了些

88

主题

1

好友

4627

积分

资深会员

Rank: 4

在线时间
1712 小时
金钱
4499 円
注册时间
2017-5-20
积分
4627
帖子
3228
UID
495148
发表于 2018-12-6 21:38:39 |显示全部楼层
謝謝分享河合奈保子-《GOLDEN☆BEST》精选辑!

1

主题

1

好友

699

积分

认证会员

Rank: 2

在线时间
382 小时
金钱
698 円
注册时间
2017-7-16
积分
699
帖子
571
UID
500602
发表于 2018-12-7 13:03:48 |显示全部楼层
谢谢楼主方向的河合奈保子精选作品,下载欣赏了。

39

主题

0

好友

1390

积分

高级会员

Rank: 3Rank: 3

在线时间
300 小时
金钱
1351 円
注册时间
2012-5-9
积分
1390
帖子
818
UID
35119
发表于 2018-12-8 05:21:01 |显示全部楼层
感谢楼主分享河合奈保子

166

主题

3

好友

6160

积分

资深会员

Rank: 4

在线时间
432 小时
金钱
5994 円
注册时间
2012-6-24
积分
6160
帖子
1470
UID
44061

高级会员纪念章

发表于 2018-12-8 20:18:38 |显示全部楼层
谢谢楼主提供

0

主题

0

好友

0

积分

普通会员

Rank: 1

在线时间
1 小时
金钱
0 円
注册时间
2012-7-25
积分
0
帖子
3
UID
124903
发表于 2018-12-9 00:46:49 |显示全部楼层
感谢楼主分享河合奈保子

3

主题

0

好友

22

积分

普通会员

Rank: 1

在线时间
51 小时
金钱
19 円
注册时间
2018-12-11
积分
22
帖子
138
UID
509277
发表于 2018-12-15 19:32:00 |显示全部楼层
感谢分享,一定收藏
您需要登录后才可以回帖 登录 | 注册

手机版|Archiver|日文老歌论坛 ( 沪ICP备05038666号 )

GMT+8, 2020-7-11 18:32 , Processed in 0.180404 second(s), 22 queries .

Powered by Discuz! X2.5

© 2001-2012 Comsenz Inc.

回顶部